#TITLE:Show Time;
#SUBTITLE:Dead Master;
#ARTIST:Twenty;
#TITLETRANSLIT:;
#SUBTITLETRANSLIT:;
#ARTISTTRANSLIT:;
#CREDIT:;
#BANNER:bn.jpg;
#BACKGROUND:bg.jpg;
#LYRICSPATH:;
#CDTITLE:cd.png;
#MUSIC:Twenty(show time).ogg;
#OFFSET:-2.476;
#SAMPLESTART:59.365;
#SAMPLELENGTH:12.000;
#SELECTABLE:YES;
#BPMS:0.000=105.469;
#STOPS:;
#BGCHANGES:0.000=Twenty(show time).avi=1.000=1=1=0,
99999=-nosongbg-=1.000=0=0=0 // don't automatically add -songbackground-
;
// cache tags:
#FIRSTBEAT:0.250;
#LASTBEAT:209.500;
#SONGFILENAME:Songs/Super Dancer Online mania/Twenty(show time)/Twenty(show time).sm;
#HASMUSIC:1;
#HASBANNER:1;
#MUSICLENGTH:126.798;
// end cache tags

//---------------dance-single - ----------------
#NOTES:
     dance-single:
     :
     Hard:
     1:
     0.833,0.702,0.418,0.221,1.000,658.000,53.000,28.000,0.000,0.000:
0000
1000
0000
0010
0010
0000
0100
0001
0000
1000
0010
0000
0100
0000
0001
0000
,
1000
0010
0010
0100
0000
0001
1000
0000
0010
0000
0100
0001
0000
0100
0000
0010
,
0000
0000
1000
0100
0010
0010
0100
0000
1001
0000
0010
0100
0010
0000
1001
0000
,
0000
0010
0001
0000
0100
0010
0000
1010
0100
0100
0000
0010
0000
0010
0100
0001
,
0000
1010
0010
0100
0001
0000
0100
0010
1000
0000
0010
0000
0101
0000
0100
0010
,
1000
0010
0010
0100
0001
1000
0010
0110
0100
0001
1000
0010
0000
0110
0000
0101
,
1000
0010
0000
0100
1010
0001
0100
0010
0100
0010
1000
0001
0000
0100
0020
0000
,
0000
0000
0230
0000
0000
0000
0320
0000
0000
0000
1000
0030
0000
0001
0100
0000
,
0000
0010
1000
0010
0100
0001
0110
0000
1010
0000
0101
0100
0010
1000
0010
0100
,
0010
0100
0001
1000
0010
0100
0010
0100
0001
1000
0010
0100
0010
0100
0001
0000
,
1000
0010
0000
0110
0100
0001
0000
1000
0010
0000
0010
0100
0001
1000
0000
0200
,
0000
0300
0010
0000
1000
0000
0110
0100
0100
0010
0001
0000
1000
0000
0010
0010
,
0100
0001
1000
0010
0100
0110
0001
1000
0010
0100
0001
0100
0010
1000
0010
0100
,
0001
0100
0010
1000
0001
0100
0110
0010
1000
0001
0000
0100
0110
0000
0001
0100
,
0010
1000
0010
0100
0001
0100
0010
1000
0010
0100
0001
0100
0010
2000
0000
0000
,
0000
3020
0000
0000
0000
0230
0000
0000
0000
0310
0010
1000
0100
0002
0000
0000
,
0013
0100
0010
0010
1000
0100
0010
0000
0010
0100
0001
0100
0010
1000
0010
0100
,
0010
0100
0001
0100
0010
0010
1000
0001
0100
0010
0100
0010
0100
0001
1000
0010
,
0100
0110
0001
1000
0010
0100
0001
0100
0010
1000
0010
0100
0002
0000
0000
0000
,
0203
0000
0000
0000
0300
0020
0000
0000
2000
0030
0000
3010
0010
0100
0001
0100
,
0010
1000
0001
0100
0010
0100
1001
0000
0010
0100
0110
0000
0001
1000
0010
0100
,
0001
0100
1010
0001
0000
0100
0010
0100
0010
1000
0100
0010
0010
0100
0000
0020
,
0000
0000
0030
1000
0100
0020
0000
0000
0130
0100
0010
0000
0001
1000
0000
0010
,
0010
0000
0100
0001
0000
1000
0100
0000
0010
0010
0000
0101
0000
0110
0000
1000
,
0010
0100
0001
0110
1000
0010
0100
0001
0100
1010
0000
0110
0000
0002
0000
0003
,
0100
0010
0110
1000
0100
0010
0010
0100
0010
0100
1000
0000
0200
0000
0000
0310
,
0010
1000
0100
0010
0010
0100
0001
0000
0100
0010
0010
1000
0100
0010
0010
0100
,
0000
0010
1001
0000
0010
0010
0100
0000
0001
0000
1000
0000
0010
0010
0100
0001
,
1000
0010
0100
0010
0101
1000
0010
0100
0010
0100
0001
0000
1010
0000
0110
0100
,
0001
1000
0010
0100
0001
1000
0010
0100
0010
0000
0100
0010
1001
0000
0110
0100
,
0001
1000
0010
0100
0001
0100
0010
1000
0001
0200
0000
0000
0320
0000
0000
0130
,
0100
0010
0010
1000
0100
0010
0010
0100
0002
0000
0013
0000
0100
0000
0010
0010
,
1000
0010
0100
0001
0100
0010
1000
0000
0010
0100
0001
0100
0010
1000
0001
0100
,
0010
0101
0000
1000
0110
0001
0100
0010
0100
0010
1000
0000
0001
0100
0110
0000
,
0010
1000
0001
0100
0020
0000
0000
0030
0100
0100
0010
1000
0010
0100
0001
0100
,
0010
1000
0010
0100
0010
0100
0001
1000
0010
0100
0010
0100
0001
1000
0010
0100
,
0001
0100
0010
1000
0010
0100
0001
0100
0010
1000
0010
0100
0010
0100
0001
1000
,
0010
0100
0010
0100
0001
1000
0010
0100
0010
0100
0001
1000
0010
0100
0010
0100
,
0001
1000
0010
0100
0010
0100
0001
1000
0010
0100
0001
1000
0010
0100
0010
0100
,
0001
1000
0010
0100
0010
0100
0001
1000
0010
0100
0001
0101
0000
1000
0110
0001
,
0100
0010
1000
0001
0100
0010
0100
0001
1000
0010
0100
0000
0110
0000
1001
0010
,
0100
0000
0010
1000
0001
0100
0010
0110
0000
1000
0001
0100
0110
0010
0000
1001
,
0000
0100
0110
0000
1010
0001
0100
0000
0110
0010
1000
0001
0100
0010
0100
0010
,
1000
0000
0010
0000
0100
0010
0010
0000
2000
0000
3000
0020
0000
0130
0010
0000
,
1000
0001
0000
0110
0010
0100
0010
1000
0000
0001
0000
0100
0010
0010
0100
1001
,
0000
0100
0010
0010
0100
0001
0000
0010
1000
0010
0010
0100
0001
0000
1000
0010
,
0010
0100
0001
0010
0001
0000
1000
0200
0000
0000
0310
0010
0100
0000
0010
1200
,
0000
0000
0310
0010
0000
0100
0001
0001
1000
0010
0000
0100
0010
0100
0000
0001
,
1000
0010
0100
0010
0100
0001
0100
0010
1000
0001
0100
0010
0100
0010
0100
0001
,
1000
0010
0100
0001
1000
0001
0000
0110
0000
1001
0000
0110
0100
0001
1000
0010
,
0100
0001
0000
1010
0100
0001
1000
0010
0100
0000
0020
0000
0000
0000
2030
0000
,
0000
0000
0000
3020
0000
0000
0030
0200
0000
0000
0310
0000
0010
1000
0001
0100
,
0010
0100
0010
0100
0000
0001
0010
0000
0000
0000
0000
0000
0000
0000
0000
0000
;
